You need to enable JavaScript to run this app.
最新活动
产品
解决方案
定价
生态与合作
支持与服务
开发者
了解我们

H.264流可以将其SAR和DAR设置为[0:1]吗?

不应该将H.264流的SAR和DAR设置为[0:1]。这是不合法的,应该将它们设置为有效的比率值。在FFmpeg中,可以使用以下命令设置SAR和DAR

ffmpeg -i input.mp4 -aspect 16:9 -vf "setsar=1/1" output.mp4

这将将帧缩放宽高比(SAR)设置为1:1,以匹配显示宽高比(DAR)为16:9的视频。

本文内容通过AI工具匹配关键字智能整合而成,仅供参考,火山引擎不对内容的真实、准确或完整作任何形式的承诺。如有任何问题或意见,您可以通过联系service@volcengine.com进行反馈,火山引擎收到您的反馈后将及时答复和处理。
展开更多
面向开发者的云福利中心,ECS9.9元起,域名1元起,助力开发者快速在云上构建应用

社区干货

高效 AI 视频处理利器 - BMF 模块开发初体验|社区征文

究其原因,相比图片的处理,视频的处理不仅需要考虑封装格式的处理(如 MP4、HLS、MKV 等),还要考虑编码格式的处理(如 H264、H265、AV1、VP9 等),这是都是算法开发人员不得不面对的一个障碍。FFmpeg 作为一个持续了... Input #0, image2, from 'input.jpg': Duration: 00:00:00.04, start: 0.000000, bitrate: 497 kb/s Stream #0:0: Video: mjpeg (Baseline), yuvj420p(pc, bt470bg/unknown/unknown), 128x128 [SAR 1:1 DAR ...

Linux RT 进程引发内核频繁卡死的优化方案

考虑到客户虚机卡死时无法正常登录(SSH/VNC 均无法登录),因此只能通过有限的手段进行分析,我们决定从虚机内部和虚机外部(即虚机所在 Host 主机上)同时入手分析。首先在虚机内部我们让客户协助配置 sar 的打点粒度,... (Completely Fair Scheduler),在内核定义中是 SCHED_OTHER 或者 SCHED_NORMAL,这两个代表同样的含义。通过查看 surfaceflinger 进程的调度策略,发现 surfaceflinger 进程设置的调度类为 SCHED_FIFO,SCHED_FIFO 是...

干货|七个方向,基于开源工具构建一款智能化BI

=&rk3s=8031ce6d&x-expires=1709050820&x-signature=lrT%2B0zPKIGKLM3XVuPjwTxliUl0%3D)在仪表盘层面,则支持为仪表盘整体设置统一的主题样式。 ![picture.image](https://p6-volc-community-sign.by... =&rk3s=8031ce6d&x-expires=1709050820&x-signature=rvS6ps6g5Hbj68F9b75B4kLjPsM%3D)VChart 中注册和应用主题的代码简单直接:``` `const theme = {` `name: "dark",` `background: "...

只需五步,ByteHouse实现MaterializedMySQL能力增强

(https://p6-volc-community-sign.byteimg.com/tos-cn-i-tlddhu82om/1853fde92052418f8fadee616b0b49f1~tplv-tlddhu82om-image.image?=&rk3s=8031ce6d&x-expires=1709223620&x-signature=%2Fo7fjLssaR4jJMnLndNwoH... **ByteHouse提高了多个功能来简化异常问题处理。** ● **跳过不支持的语句**MySQL支持的DDL语句非常丰富,有很多语法与clickhouse不兼容,在ClickHouse端执行会报错中断同步任务。可以通过设置skip\_dd...

特惠活动

域名注册服务

cn/top/com等热门域名,首年低至1元,邮箱建站必选
1.00/首年起32.00/首年起
立即购买

2核4G热门爆款云服务器

100%性能独享不限流量,学习测试、web前端、企业应用首选,每日花费低至0.24元
89.00/2380.22/年
立即抢购

DCDN国内流量包100G

同时抵扣CDN与DCDN两种流量消耗,加速分发更实惠
2.00/20.00/年
立即购买

H.264流可以将其SAR和DAR设置为[0:1]吗? -优选内容

高效 AI 视频处理利器 - BMF 模块开发初体验|社区征文
究其原因,相比图片的处理,视频的处理不仅需要考虑封装格式的处理(如 MP4、HLS、MKV 等),还要考虑编码格式的处理(如 H264、H265、AV1、VP9 等),这是都是算法开发人员不得不面对的一个障碍。FFmpeg 作为一个持续了... Input #0, image2, from 'input.jpg': Duration: 00:00:00.04, start: 0.000000, bitrate: 497 kb/s Stream #0:0: Video: mjpeg (Baseline), yuvj420p(pc, bt470bg/unknown/unknown), 128x128 [SAR 1:1 DAR ...
数据结构
NodeIds Array of String ["vedbm-r3sar8zi****-0", "vedbm-r3sar8zi****-1"] 连接终端配置的节点列表。 ReadWriteMode String ReadWrite 连接终端的读写模式,取值: ReadWrite: 读写。 ReadOnly: 只读。 Dis... 设置了标签值,则筛选时该参数必填。 TableMetaObject库表恢复时,需要恢复的库信息,被 RestoreTable 接口引用。 名称 类型 是否必选 示例值 描述 DBName String 是 testdb1 需要恢复的目标库名。 NewDBName Stri...
User Profile API(SaaS查看)
本文档仅针对SaaS版本,不支持SaaS云原生版本和私有化版本;SaaS云原生版本和私有化版本接入请参考HTTP API文档中的上报用户属性模块。 1.概述 由于通过客户端SDK(APP、网站及小程序)和服务端SDK设置的用户属性,默认... 查询时将该属性与事件按照用户口径进行关联。如果我们希望事件能关联上事件上报时刻对应的旧值,通常推荐将该属性定义为事件属性或事件公共属性。对于某些必须将其定义为用户属性的场景,我们提供了 User Profile AP...
Linux RT 进程引发内核频繁卡死的优化方案
考虑到客户虚机卡死时无法正常登录(SSH/VNC 均无法登录),因此只能通过有限的手段进行分析,我们决定从虚机内部和虚机外部(即虚机所在 Host 主机上)同时入手分析。首先在虚机内部我们让客户协助配置 sar 的打点粒度,... (Completely Fair Scheduler),在内核定义中是 SCHED_OTHER 或者 SCHED_NORMAL,这两个代表同样的含义。通过查看 surfaceflinger 进程的调度策略,发现 surfaceflinger 进程设置的调度类为 SCHED_FIFO,SCHED_FIFO 是...

H.264流可以将其SAR和DAR设置为[0:1]吗? -相关内容

只需五步,ByteHouse实现MaterializedMySQL能力增强

(https://p6-volc-community-sign.byteimg.com/tos-cn-i-tlddhu82om/1853fde92052418f8fadee616b0b49f1~tplv-tlddhu82om-image.image?=&rk3s=8031ce6d&x-expires=1709223620&x-signature=%2Fo7fjLssaR4jJMnLndNwoH... **ByteHouse提高了多个功能来简化异常问题处理。** ● **跳过不支持的语句**MySQL支持的DDL语句非常丰富,有很多语法与clickhouse不兼容,在ClickHouse端执行会报错中断同步任务。可以通过设置skip\_dd...

发布历史

HLS 特定片源支持获取 SAR 他 bugfix 上传 SDK支持上传时指定工作流 ID 2023-10-25 基础版:1.39.3.7 高级版:1.39.3.7 修复 crash,多线程下的空指针 优化:TTSDK AppLog 初始化使用 autoStart(false),用户授权同意后,使用 AppLog start 模式 其他 bugfix 2023-10-13 基础版:1.39.2.8 高级版:1.39.2.8 优化预加载和下载功能:不再依赖 MD5 值做唯一标识,优先使用 fileID 新增 API: 支持设置 APP 后台时不刷新 settings 请求...

发布历史

HLS 特定片源支持获取 SAR 他 bugfix 上传 SDK支持上传时指定工作流 ID 2023-10-25 基础版:1.39.3.7 高级版:1.39.3.7 修复 crash,多线程下的空指针 优化:TTSDK AppLog 初始化使用 autoStart(false),用户授权同意后,使用 AppLog start 模式 其他 bugfix 2023-10-13 基础版:1.39.2.8 高级版:1.39.2.8 优化预加载和下载功能:不再依赖 MD5 值做唯一标识,优先使用 fileID 新增 API: 支持设置 APP 后台时不刷新 settings 请求...

域名注册服务

cn/top/com等热门域名,首年低至1元,邮箱建站必选
1.00/首年起32.00/首年起
立即购买

2核4G热门爆款云服务器

100%性能独享不限流量,学习测试、web前端、企业应用首选,每日花费低至0.24元
89.00/2380.22/年
立即抢购

DCDN国内流量包100G

同时抵扣CDN与DCDN两种流量消耗,加速分发更实惠
2.00/20.00/年
立即购买

发布历史

1.40.1.12-premium 点播 SDK支持 vorbis 编码格式的音频播放 M3U8 文件不拆 range,兼容 CDN 厂商返回的 contentrange 错误值 HLS 特定片源支持获取 SAR 修复 Xcode 15 编译报错 其他 bugfix 上传 SDK支持上传时指定工作流 ID 2023-11-13 基础版:1.39.3.11-standard 高级版:1.39.3.11-premium bugfix 2023-10-09 基础版:1.39.2.14-standard 高级版:1.39.2.14-premium M3U8 格式,在 Vid 播放场景中,支持设置过期时间,到期...

三代实例网络性能测试

此时产生的flow总数为:(109 - 9 + 1) * (40003 - 40000 + 1) = 101 * 4 = 404。 Flow variation random source port between min and maxUDP_SRC_MIN=9UDP_SRC_MAX=109 在被测试机器端执行sar -n DEV 1命令,查看测... dpkg -i --force-overwrite /var/cache/apt/archives/linux-tools-common_5.15.0-66.73_all.deb 在被测试机和辅助测试机上执行以下命令,设置所有CPU为性能模式。 cpupower -c all frequency-set -g performance 在...

发布历史

1.40.1.12-premium 点播 SDK支持 vorbis 编码格式的音频播放 M3U8 文件不拆 range,兼容 CDN 厂商返回的 contentrange 错误值 HLS 特定片源支持获取 SAR 修复 Xcode 15 编译报错 其他 bugfix 上传 SDK支持上传时指定工作流 ID 2023-11-13 基础版:1.39.3.11-standard 高级版:1.39.3.11-premium bugfix 2023-10-09 基础版:1.39.2.14-standard 高级版:1.39.2.14-premium M3U8 格式,在 Vid 播放场景中,支持设置过期时间,到期...

使用Pktgen测试网络性能

bash .sh -i [eth_dev] -d [dut_ip] -s 64 -m [dut_mac] -c 10 -p 40000-40003 -n 0 -t [queue_num] 说明: [eth_dev]:网卡设备名称 [dut_ip]:被测试机器私网IP [dut_mac]:被测试机器MAC地址 [queue_num]:队列数 由于脚本中有如下配置,此时产生的flow总数为:(109 - 9 + 1) * (40003 - 40000 + 1) = 101 * 4 = 404 Flow variation random source port between min and maxUDP_SRC_MIN=9UDP_SRC_MAX=109 在被测试机器执行sar -n D...

使用Netperf测试网络性能

netperf -p参数说明: 参数 说明 -p 端口号 -H 接收端 IP 地址 -t 发包协议类型 -l 测试时长 -m 数据包大小,带宽建议“1440”,收发包建议“1” 步骤三:测试网络性能测试TCP bps1. 在 server 端启动 netserver 进程,监听 12000 端口。netserver -p 120002. 在 client 端执行以下命令。命令中 IP 地址为 client 端内网 IP 地址。netperf -H 192.168.xx.xx -p 12000 -t TCP_STREAM -l 300 -- -m 1440 &3. 在 server 端使用 sar 工具...

特惠活动

域名注册服务

cn/top/com等热门域名,首年低至1元,邮箱建站必选
1.00/首年起32.00/首年起
立即购买

2核4G热门爆款云服务器

100%性能独享不限流量,学习测试、web前端、企业应用首选,每日花费低至0.24元
89.00/2380.22/年
立即抢购

DCDN国内流量包100G

同时抵扣CDN与DCDN两种流量消耗,加速分发更实惠
2.00/20.00/年
立即购买

产品体验

体验中心

幻兽帕鲁服务器搭建

云服务器
快速搭建幻兽帕鲁高性能服务器,拒绝卡顿,即可畅玩!
即刻畅玩

白皮书

一图详解大模型
浓缩大模型架构,厘清生产和应用链路关系
立即获取

最新活动

热门联机游戏服务器

低至22元/月,畅玩幻兽帕鲁和雾锁王国
立即部署

火山引擎·增长动力

助力企业快速增长
了解详情

数据智能VeDI

易用的高性能大数据产品家族
了解详情

一键开启云上增长新空间

立即咨询